<?xml version="1.0" standalone="no"?>
<!DOCTYPE svg PUBLIC "-//W3C//DTD SVG 1.1//EN" "http://www.w3.org/Graphics/SVG/1.1/DTD/svg11.dtd" >
<svg xmlns="http://www.w3.org/2000/svg">
<metadata>Generated by IcoMoon</metadata>
<defs>
<font id="UserPack" horiz-adv-x="1024">
<font-face units-per-em="1024" ascent="960" descent="-64" />
<missing-glyph horiz-adv-x="1024" />
<glyph unicode="&#x20;" horiz-adv-x="512" d="" />
<glyph unicode="&#xe900;" glyph-name="3d" horiz-adv-x="1026" d="M699.767 245.004c-10.821 0-19.839-8.817-19.839-19.839s8.817-19.839 19.839-19.839c10.821 0 19.839 8.817 19.839 19.839s-9.018 19.839-19.839 19.839zM529.634 592.883c0 10.821-8.817 19.839-19.839 19.839s-19.839-8.817-19.839-19.839c0-10.821 8.817-19.839 19.839-19.839s19.839 9.018 19.839 19.839zM320.225 205.526c10.821 0 19.839 8.817 19.839 19.839s-8.817 19.839-19.839 19.839c-10.821 0-19.839-8.817-19.839-19.839s8.817-19.839 19.839-19.839zM1004.161 111.543l-106.809 47.493v433.847c0 7.815-4.609 15.029-12.224 18.236l-355.494 152.899v145.083c0 10.821-8.817 19.839-19.839 19.839-10.821 0-19.839-8.817-19.839-19.839v-145.083l-355.294-152.899c-7.014-3.006-12.224-10.020-12.224-18.236v-433.847l-106.809-47.493c-10.020-4.409-14.428-16.031-10.020-26.051 4.409-9.819 16.031-14.428 26.051-10.020l110.616 49.096 359.703-154.702c4.809-2.004 10.621-2.204 15.631 0l359.703 154.702 110.616-49.096c10.020-4.409 21.642 0.2 26.051 10.020 4.809 9.819 0.2 21.642-9.819 26.051zM490.157 720.933v-49.096c0-10.821 8.817-19.839 19.839-19.839 10.821 0 19.839 8.817 19.839 19.839v49.096l297.782-128.050-317.62-136.667-317.62 136.667 297.782 128.050zM265.919 201.118c-4.409 10.020-16.031 14.428-26.051 10.020l-77.952-34.668v386.355l328.041-141.076v-403.789l-298.383 128.451 64.326 28.656c10.020 4.409 14.428 16.031 10.020 26.051zM529.634 17.96v403.789l328.041 141.076v-386.355l-77.952 34.668c-10.020 4.409-21.642 0-26.051-10.020s0-21.642 10.020-26.051l64.326-28.656-298.383-128.451z" />
<glyph unicode="&#xe902;" glyph-name="archi" d="M997.942 332.545c-6.192 2.58-13.416 1.032-18.060-3.87l-70.176-73.788v438.341l67.080 72.24c6.192 6.708 5.676 17.028-1.032 23.22v0l-23.994 22.446 33.54 36.12c6.192 6.708 5.676 17.028-1.032 23.22l-72.24 67.080c-6.708 6.192-17.028 5.676-23.22-1.032l-116.874-126.162h-569.405c0 45.408-36.894 82.044-82.302 82.302h-16.512c-45.408 0-82.044-36.894-82.302-82.302v-706.919c0-9.030 7.482-16.512 16.512-16.512h248.97l-34.572-41.538c-5.676-6.966-4.902-17.286 2.064-23.22l75.852-63.21c6.966-5.934 17.286-4.902 23.22 2.064v0l84.108 101.136c5.934 6.966 9.546 15.48 10.836 24.51h301.343l-98.814-103.716c-6.192-6.45-5.934-17.028 0.516-23.22 3.096-2.838 7.224-4.644 11.352-4.644h328.691c9.030 0 16.512 7.482 16.512 16.512v345.719c0.258 6.708-3.87 12.9-10.062 15.222zM941.44 776.046l-31.734-34.314v24.252l19.608 21.414 12.126-11.352zM876.682 778.884v0l-139.062-150.414-48.246 44.634 167.442 181.116 48.246-44.634-28.38-30.702zM706.145 612.991l-37.926-11.094 7.998 38.442 29.928-27.348zM901.45 902.466l48.246-44.634-22.446-24.252-48.246 44.634 22.446 24.252zM103.974 859.896h16.512c27.348 0 49.278-22.188 49.278-49.278v-625.133c-14.19 10.836-31.476 16.77-49.278 16.77h-16.512c-17.802 0-35.088-5.934-49.278-16.77v625.133c0 27.090 21.93 49.278 49.278 49.278zM103.974 169.49h16.512c27.348 0 49.278-22.188 49.278-49.278h-115.068c0 27.090 21.93 49.278 49.278 49.278zM412.541 83.834l-10.578-12.642-50.568 42.054 10.578 12.642c5.934 6.966 16.254 7.998 23.22 2.064v0l25.284-20.898c6.966-5.934 7.74-16.254 2.064-23.22v0 0zM339.011-4.66l-50.568 42.054 42.054 50.568 50.568-42.054-42.054-50.568zM441.695 120.212c-2.838 4.644-6.192 8.514-10.32 12.126l-25.284 21.156c-20.898 17.544-52.116 14.706-69.402-6.45l-22.188-26.832h-111.972v657.383h538.703l-87.204-94.17c-1.29-1.29-2.322-3.096-2.838-4.902-0.258-0.516-0.258-1.032-0.516-1.29-0.258-0.516-0.516-1.032-0.516-1.548l-19.608-93.912c-1.806-8.772 3.87-17.544 12.642-19.35 2.58-0.516 5.418-0.516 7.998 0.258l92.106 26.832c0.516 0.258 0.774 0.258 1.29 0.516s0.774 0.258 1.29 0.516c1.806 0.774 3.612 2.064 4.902 3.354l125.904 136.482v-510.065l-95.46-100.362-339.527 0.258zM975.238-11.368h-273.995l273.995 287.669v-287.669zM795.67 31.718c2.58-6.192 8.514-10.062 15.222-10.062h115.068c9.030 0 16.512 7.482 16.512 16.512v115.068c0 9.030-7.482 16.512-16.512 16.512-4.386 0-8.514-1.806-11.61-4.902l-115.068-115.068c-4.644-4.902-6.192-12.126-3.612-18.060zM909.448 113.246v-58.824h-59.082l59.082 58.824zM771.676 401.173h-21.414l8.772 57.018c0.258 1.032 0 2.322-0.258 3.354 0.258 0.258 0.516 0.774 0.774 1.032 18.576 27.348 20.64 58.050 20.898 59.34 0.258 3.096-1.29 6.192-4.128 7.998s-5.934 1.806-8.772 0.258c-1.032-0.516-18.318-9.804-34.572-26.574-3.096 30.186-16.254 52.89-17.028 53.922-1.548 2.58-4.386 4.386-7.482 4.386v0c-3.096 0-5.934-1.548-7.482-4.386-0.516-1.032-13.674-23.478-16.77-53.406-16.512 16.512-33.798 25.542-34.572 26.058-2.838 1.548-6.192 1.29-8.772-0.516s-4.128-4.644-3.87-7.998c0-1.29 2.322-31.992 20.898-59.34 0.258-0.258 0.516-0.774 0.774-1.032-0.258-1.032-0.258-2.322-0.258-3.354l8.772-57.018h-30.186v134.934c0 4.902-3.87 8.772-8.772 8.772h-37.152c-4.902 0-8.772-3.87-8.772-8.772s3.87-8.772 8.772-8.772h28.38v-126.162h-126.42v126.162h24.252c4.902 0 8.772 3.87 8.772 8.772s-3.87 8.772-8.772 8.772h-24.51v135.192c0 4.902-3.87 8.772-8.772 8.772h-143.964c-4.902 0-8.772-3.87-8.772-8.772v-431.375c0-4.902 3.87-8.772 8.772-8.772h431.633c4.902 0 8.772 3.87 8.772 8.772v143.964c0 4.902-3.87 8.772-8.772 8.772zM436.535 257.725c0-0.258-0.258-0.516-0.516-0.516h-86.946c-0.258 0-0.516 0.258-0.516 0.516v25.8c0 0.258 0.258 0.516 0.516 0.516h86.688c0.258 0 0.516-0.258 0.516-0.516l0.258-25.8zM348.815 302.101v17.028c0 0.258 0.258 0.516 0.516 0.516h58.824c0.258 0 0.516-0.258 0.516-0.516v-17.028c0-0.258-0.258-0.516-0.516-0.516h-58.824c-0.258 0-0.516 0.258-0.516 0.516zM475.235 257.467h-21.156c0 0.258 0 0.258 0 0.516v25.8c0 9.804-7.998 18.060-18.060 18.060h-10.062c0 0.258 0 0.258 0 0.516v17.028c0 9.804-7.998 18.060-18.060 18.060h-58.824c-0.258 0-0.258 0-0.516 0v46.698h126.42l0.258-126.678zM376.937 455.611h-1.806v24.51h73.788v-24.51h-71.982zM438.341 438.067v-36.894h-52.632v36.894h52.632zM475.235 401.173h-19.35v36.894h1.806c4.902 0 8.772 3.87 8.772 8.772v42.054c0 4.902-3.87 8.772-8.772 8.772h-91.332c-4.902 0-8.772-3.87-8.772-8.772v-42.054c0-4.902 3.87-8.772 8.772-8.772h1.806v-36.894h-19.35v126.162h126.42v-126.162zM432.149 589.513c5.934-6.708 9.288-15.48 9.288-24.51v-20.124h-58.824v20.382c0 9.030 3.354 17.802 9.288 24.51 8.772 10.062 13.674 22.704 13.674 36.12v13.158h12.9v-13.158c0-13.416 4.902-26.316 13.674-36.378zM475.235 544.879h-16.254v20.382c0 13.416-4.902 26.058-13.674 36.12-5.934 6.708-9.288 15.48-9.288 24.51v21.93c0 4.902-3.87 8.772-8.772 8.772h-30.444c-4.902 0-8.772-3.87-8.772-8.772v-21.93c0-9.030-3.354-17.802-9.288-24.51-8.772-10.062-13.674-22.704-13.674-36.12v-20.124h-16.254v126.42h126.42v-126.678zM539.735 257.725c0-0.258-0.258-0.516-0.516-0.516h-17.028c-0.258 0-0.516 0.258-0.516 0.516v58.824c0 0.258 0.258 0.516 0.516 0.516h17.028c0.258 0 0.516-0.258 0.516-0.516v-58.824zM574.823 257.725c0-0.258-0.258-0.516-0.516-0.516h-16.77c-0.258 0-0.516 0.258-0.516 0.516v86.688c0 0.258 0.258 0.516 0.516 0.516h16.77c0.258 0 0.516-0.258 0.516-0.516v-86.688zM574.307 362.731h-16.77c-9.804 0-18.060-7.998-18.060-18.060v-10.062c-0.258 0-0.258 0-0.516 0h-17.028c-9.804 0-18.060-7.998-18.060-18.060v-58.824c0-0.258 0-0.258 0-0.516h-11.094v126.42h126.162v-21.156c-0.258 0-0.258 0-0.516 0h-25.8c-3.354 0-6.45-1.032-9.288-2.58-2.58 1.806-5.676 2.838-9.030 2.838zM618.941 257.725c0-0.258-0.258-0.258-0.516-0.258h-25.8c-0.258 0-0.516 0.258-0.516 0.516v86.946c0 0.258 0.258 0.516 0.516 0.516h25.8c0.258 0 0.516-0.258 0.516-0.516v-87.204zM732.719 475.735c0.258 0.258 0.774 0.774 1.032 1.29 7.482 11.094 17.286 20.124 25.542 26.574-2.58-9.288-6.966-20.382-13.932-30.96-1.032-1.29-2.064-2.838-3.096-4.128h-10.578c0.258 2.322 0.516 4.644 1.032 7.224zM708.467 531.979c3.87-10.32 7.74-24.768 7.74-40.506 0-7.482-0.774-15.222-2.58-22.962h-10.062c-1.548 7.74-2.58 15.48-2.58 22.962 0 15.48 3.612 29.928 7.482 40.506zM701.501 450.709h38.442l-7.74-49.536h-47.988l-7.74 49.536h25.026zM657.641 503.857c8.256-6.192 18.318-15.222 25.8-26.316 0.258-0.258 0.516-0.774 0.774-1.032 0.258-2.838 0.774-5.418 1.29-8.256h-10.578c-1.032 1.29-2.064 2.838-3.096 4.128-7.224 10.836-11.61 22.188-14.19 31.476zM762.905 257.467h-78.948v58.824c0 4.902-3.87 8.772-8.772 8.772s-8.772-3.87-8.772-8.772v-58.824h-29.928v126.42h126.42v-126.42zM562.181 542.299c-1.548 1.548-3.87 2.58-6.192 2.58s-4.644-1.032-6.192-2.58c-1.548-1.548-2.58-3.87-2.58-6.192s1.032-4.644 2.58-6.192c1.548-1.548 3.87-2.58 6.192-2.58s4.644 1.032 6.192 2.58c1.548 1.548 2.58 3.87 2.58 6.192s-1.032 4.644-2.58 6.192zM681.377 358.087c-1.548 1.548-3.87 2.58-6.192 2.58s-4.644-1.032-6.192-2.58-2.58-3.87-2.58-6.192 1.032-4.644 2.58-6.192c1.548-1.548 3.87-2.58 6.192-2.58s4.644 1.032 6.192 2.58 2.58 3.87 2.58 6.192-1.032 4.644-2.58 6.192z" />
<glyph unicode="&#xe903;" glyph-name="dessibat" d="M310.631 940.908h-291.539v-994.588h291.281v994.588zM252.324 4.628h-174.924v176.73h116.616v58.308h-116.616v58.308h58.308v58.308h-58.308v58.308h116.616v58.308h-116.616v58.308h58.308v58.308h-58.308v58.308h116.616v58.050h-116.616v176.73h174.924v-877.972zM487.361 239.665h407.897v233.232h118.422l-321.983 301.859-336.947-301.859h132.612v-233.232zM720.335 297.973h-58.308v116.616h58.308v-116.616zM690.923 695.551l175.44-164.346h-29.154v-233.232h-58.308v174.924h-174.924v-174.924h-58.308v233.232h-38.442l183.696 164.346zM1013.68 4.628v176.73h-58.308v-58.308h-235.038v58.308h-58.308v-58.308h-235.038v58.308h-58.308v-176.73h58.308v60.114h235.038v-60.114h58.308v60.114h235.038v-60.114zM135.708 822.486h58.308v-58.308h-58.308v58.308zM135.708 123.050h58.308v-58.308h-58.308v58.308zM662.027 589.255h58.308v-58.308h-58.308v58.308z" />
<glyph unicode="&#xe904;" horiz-adv-x="1321" d="M722.141 359.377c-13.158 0-23.994-10.836-23.994-23.994s10.836-23.994 23.994-23.994c13.158 0 23.994 10.836 23.994 23.994s-10.578 23.994-23.994 23.994z" />
<glyph unicode="&#xe905;" horiz-adv-x="1321" d="M1179.316 27.59c-13.158 0-23.736-10.578-23.736-23.736s10.578-23.736 23.736-23.736c13.158 0 23.736 10.578 23.736 23.736s-10.578 23.736-23.736 23.736zM1179.316-3.37c-4.128 0-7.224 3.354-7.224 7.224 0 4.128 3.354 7.224 7.224 7.224 4.128 0 7.224-3.354 7.224-7.224 0-4.128-3.096-7.224-7.224-7.224z" />
<glyph unicode="&#xe906;" horiz-adv-x="1321" d="M1167.448 333.319c0-0.258 0.258-0.516 0.258-0.774 0.258-0.516 0.516-1.032 0.774-1.548 0-0.258 0.258-0.516 0.516-0.774 0-0.258 0.258-0.258 0.258-0.516s0.258-0.258 0.258-0.516c0-0.258 0.258-0.258 0.258-0.516s0.258-0.258 0.516-0.516c0.258-0.258 0.774-0.516 1.032-0.774s0.516-0.258 0.774-0.516 1.032-0.516 1.548-0.774c0.258 0 0.516-0.258 0.774-0.258 0.516 0 1.032-0.258 1.806-0.258h42.054c4.902 0 8.772 4.128 8.772 8.772 0 4.902-3.87 8.772-8.772 8.772h-15.48v-0.258h-26.574c-2.064 0.258-4.128-0.516-5.676-1.806-0.258-0.258-0.516-0.258-0.516-0.516-1.548-1.548-2.58-3.612-2.58-5.934 0-0.258 0-0.516 0-1.032-0.258 0.258 0 0 0-0.258z" />
<glyph unicode="&#xe907;" horiz-adv-x="1321" d="M1170.286 341.833c-0.258-0.258-0.516-0.258-0.516-0.516 0 0 0.258 0.258 0.516 0.516 0 0 0 0 0 0z" />
<glyph unicode="&#xe908;" horiz-adv-x="1321" d="M1149.388 326.095c4.644 0 8.514 3.612 9.030 8.256v1.806c-0.516 4.644-4.386 8.256-9.030 8.256-4.902 0-9.030-4.128-9.030-9.030s4.128-9.288 9.030-9.288z" />
<glyph unicode="&#xe909;" horiz-adv-x="1321" d="M1280.451 377.953h-77.916v489.683c0 31.992-25.8 58.050-58.050 58.050h-844.69c-31.992 0-58.050-26.058-58.050-58.050v-357.587h-186.534c-23.736 0-43.344-16.254-43.344-36.12v-489.941c0-19.866 19.35-36.12 43.344-36.12h318.887c23.736 0 43.086 15.996 43.086 36.12v241.746h172.086v-42.054c0-38.7-31.734-70.176-70.176-70.176h-63.726c-12.384 0-22.188-10.062-22.188-22.188 0-12.384 10.062-22.188 22.188-22.188h534.059c12.384 0 22.188 10.062 22.188 22.188 0 12.384-10.062 22.188-22.188 22.188h-63.726c-38.7 0-70.176 31.734-70.176 70.176v42.054h194.532v-249.744c0-15.222 12.384-27.606 27.606-27.606h202.788c15.222 0 27.606 12.384 27.606 27.606v374.357c0 15.222-12.384 27.606-27.606 27.606zM374.357-27.622h-319.145c-7.998 0-14.448 5.16-14.448 12.126v489.683c0 6.708 6.45 12.126 14.448 12.126h318.887c7.998 0 14.448-5.16 14.448-12.126v-489.683h0.258c0-6.966-6.45-12.126-14.448-12.126zM374.357 510.307h-88.494v357.329c0 7.74 6.192 13.674 13.674 13.674h844.948c7.74 0 13.674-6.192 13.674-13.674v-422.861h-740.975v29.154c0.258 20.124-19.092 36.378-42.828 36.378zM609.395 113.504c15.222 19.35 23.994 43.602 23.994 70.176v42.054h177.504v-42.054c0-26.316 9.030-50.568 23.994-70.176h-225.492zM1050.058 350.347v-79.98h-632.873v130.29h741.233v-22.704h-80.754c-15.222 0-27.606-12.384-27.606-27.606zM1289.481-23.494c0-4.902-4.128-9.030-9.030-9.030h-202.788c-4.902 0-9.030 4.128-9.030 9.030v373.841c0 4.902 4.128 9.030 9.030 9.030h202.788c4.902 0 9.030-4.128 9.030-9.030v-373.841z" />
<glyph unicode="&#xe90a;" horiz-adv-x="1321" d="M1175.962 343.639h26.574v0.258h-26.574c-0.516 0-1.29 0-1.806-0.258-0.258 0-0.516 0-0.774-0.258-0.516-0.258-1.032-0.258-1.548-0.774-0.258 0-0.516-0.258-0.774-0.516s-0.516-0.516-0.774-0.774c0 0 0 0 0 0 1.548 1.548 3.612 2.322 5.676 2.322z" />
<glyph unicode="&#xe90b;" horiz-adv-x="1321" d="M1194.796 205.867c-3.612 3.612-9.288 3.612-12.9 0l-43.86-43.86c-3.612-3.612-3.612-9.288 0-12.9 1.806-1.806 4.128-2.58 6.45-2.58s4.644 0.774 6.45 2.58l43.86 43.86c3.354 3.612 3.354 9.546 0 12.9z" />
<glyph unicode="&#xe90c;" horiz-adv-x="1321" d="M1190.41 150.14c1.806-1.806 4.128-2.58 6.45-2.58s4.644 0.774 6.45 2.58l17.544 17.544c3.612 3.612 3.612 9.288 0 12.9s-9.288 3.612-12.9 0l-17.544-17.544c-3.612-3.612-3.612-9.546 0-12.9z" />
<glyph unicode="&#xe90d;" horiz-adv-x="1321" d="M1262.392 309.841h-166.41c-4.386 0-8.256-3.87-8.256-8.256v-252.066c0-4.644 3.87-8.256 8.256-8.256h166.41c4.644 0 8.256 3.87 8.256 8.256v252.066c0 4.902-3.612 8.256-8.256 8.256zM1254.136 57.776h-149.898v235.812h149.898v-235.812z" />
<glyph unicode="&#xe90e;" horiz-adv-x="1321" d="M244.842 265.465c0.258 1.032 0.516 2.322 0.516 3.612 0 3.354-1.032 6.708-3.096 9.288v0c0 0.258-0.258 0.258-0.258 0.516 0 0 0 0.258 0 0.516v0c-0.258 0.258-0.258 0.516-0.516 0.774-6.192 6.192-15.738 6.192-21.93 0l-74.304-74.82c-6.192-5.934-6.192-15.738 0-21.93 2.838-3.354 6.708-4.644 10.836-4.644 3.87 0 7.998 1.806 10.836 4.644l74.304 74.82c1.806 1.548 3.354 4.128 4.128 6.45v0c0 0.258-0.258 0.258-0.258 0.516-0.516-0.258-0.258 0-0.258 0.258z" />
<glyph unicode="&#xe90f;" horiz-adv-x="1321" d="M233.748 206.383c-6.192-6.192-6.192-15.738 0-21.93 2.838-3.354 6.966-4.644 10.836-4.644s7.998 1.806 10.836 4.644l29.67 29.928c3.612 3.612 4.902 8.256 4.644 12.642 0 0 0 0.258 0 0.258s-0.258 0-0.258 0c0 0-0.258 0-0.258 0-0.258 3.354-1.806 6.45-4.128 9.030 0 0 0 0-0.258 0.258 0 0 0 0 0 0s0 0 0 0c-1.032 1.032-2.322 2.064-3.612 2.838 0 0 0 0 0 0-1.548 0.774-3.354 1.29-5.418 1.548-0.774 0-1.548 0-2.58 0-2.838-0.258-5.934-1.29-8.256-3.096 0 0 0 0 0.258 0-0.516-0.258-1.032-0.774-1.548-1.29l-29.928-30.186z" />
<glyph unicode="&#xe910;" horiz-adv-x="1321" d="M369.455 444.775c-0.774 6.708-6.708 11.868-13.674 11.868h-281.735c-7.482 0-13.932-6.192-13.932-14.19v-429.569c0-7.998 6.192-13.932 13.932-13.932h281.735c7.482 0 13.932 6.192 13.932 13.932v429.827c0 0.516-0.258 1.032-0.258 1.29 0 0.516 0 0.774 0 0.774zM341.591 428.779v-401.447h-253.872v401.447h153.768v0.258h100.104v-0.258z" />
<glyph unicode="&#xe911;" horiz-adv-x="1321" d="M241.746 278.623c0 0 0.258-0.258 0.258-0.516v0c2.064-2.58 3.096-5.934 3.096-9.288 0-1.29-0.258-2.322-0.516-3.612 0-0.258 0-0.258 0-0.516s0-0.258 0.258-0.516c0 0 0 0.258 0 0.516 1.29 4.644 0.258 9.546-2.838 13.674 0 0-0.258 0.258-0.258 0.516 0 0 0-0.258 0-0.258z" />
<glyph unicode="&#xe912;" horiz-adv-x="1321" d="M284.831 236.311c0 0 0 0 0 0 0.258 0 0.258-0.258 0 0 2.58-2.838 4.128-5.934 4.386-9.288 0 0 0.258 0 0.258 0s0.258 0 0.258 0c-0.258 3.354-1.806 6.45-4.386 9.030-1.29 1.29-2.838 2.322-4.386 3.096 1.548-0.774 2.58-1.548 3.87-2.838 0 0 0 0 0 0z" />
<glyph unicode="&#xe913;" horiz-adv-x="1321" d="M241.488 429.037v-0.258h100.104v0.258h-99.846z" />
</font>
</defs>
</svg>
